<?xml version="1.0" standalone="no"?>
<!DOCTYPE svg PUBLIC "-//W3C//DTD SVG 1.1//EN" "http://www.w3.org/Graphics/SVG/1.1/DTD/svg11.dtd">
<svg xmlns="http://www.w3.org/2000/svg">
<metadata>Generated by Fontastic.me</metadata>
<defs>
<font id="kindergarten" horiz-adv-x="512">
<font-face font-family="kindergarten" units-per-em="512" ascent="480" descent="-32"/>
<missing-glyph horiz-adv-x="512" />

<glyph unicode="&#74;" d="M504 384c5-3 8-9 8-15 0 0 0-299 0-299 0-7-3-12-8-16-3-2-6-3-8-3-3 0-6 1-10 3 0 0-110 70-110 70 0 0-111-70-111-70-6-3-12-3-17 0 0 0-112 70-112 70 0 0-110-70-110-70-6-3-12-3-18 0-5 4-8 9-8 16 0 0 0 299 0 299 0 6 3 12 8 15 0 0 120 75 120 75 6 3 12 3 17 0 0 0 111-70 111-70 0 0 112 70 112 70 5 3 11 3 16 0 0 0 120-75 120-75m-384-230c0 0 0 259 0 259 0 0-86-54-86-54 0 0 0-259 0-259 0 0 86 54 86 54m120-54c0 0 0 259 0 259 0 0-86 54-86 54 0 0 0-259 0-259 0 0 86-54 86-54m119 54c0 0 0 259 0 259 0 0-87-54-87-54 0 0 0-259 0-259 0 0 87 54 87 54m119-54c0 0 0 259 0 259 0 0-86 54-86 54 0 0 0-259 0-259 0 0 86-54 86-54"/>
<glyph unicode="&#97;" d="M496 352l-16 0 0-96 16 0c9 0 16 7 16 16l0 64c0 9-7 16-16 16m-144 128l-192 0c-53 0-96-43-96-96l0-288c0-18 14-32 32-32l0-32c0-18 14-32 32-32l32 0c18 0 32 14 32 32l0 32 128 0 0-32c0-18 14-32 32-32l32 0c18 0 32 14 32 32l0 32c18 0 32 14 32 32l0 288c0 53-43 96-96 96m-160-32l128 0 0-32-128 0z m-64-352c-18 0-32 14-32 32 0 18 14 32 32 32 18 0 32-14 32-32 0-18-14-32-32-32m256 0c-18 0-32 14-32 32 0 18 14 32 32 32 18 0 32-14 32-32 0-18-14-32-32-32m32 96l-320 0 0 192 320 0z m-416 144l0-64c0-9 7-16 16-16l16 0 0 96-16 0c-9 0-16-7-16-16"/>
<glyph unicode="&#98;" d="M291 120c-7-7-19-8-26-2l-125 92c-8 5-9 17-3 24l16 22c5 7 17 9 24 3l80-58c8-6 20-5 27 2l178 192c7 7 18 7 25 1l19-19c7-6 8-17 1-25z m130 77c0-26 0-104 0-104 0-15-12-27-27-27l-338 0c-15 0-27 12-27 27l0 326c0 15 12 27 27 27l338 0c15 0 27-12 27-27 0 0 0-12 0-16 0-10 7-3 7-3 0 0 14 13 17 16 2 2 5 5 5 10l0 22c0 14-12 27-27 27l-396 0c-15 0-27-13-27-27l0-384c0-14 12-27 27-27l396 0c15 0 27 13 27 27 0 0 0 123 0 164 0 8-6 1-6 1 0 0-13-13-19-19-2-2-4-5-4-13z"/>
<glyph unicode="&#99;" d="M482 483c-39 39-101 40-148-2 6-2 11-4 17-6 29-12 55-30 77-52 23-23 40-49 52-78 2-2 3-5 4-8 38 46 37 107-2 146z m-3-233c0 123-100 223-223 223-123 0-223-100-223-223 0-72 35-137 89-178-29-34-46-63-38-70l0 0c8-8 41 12 79 46 28-13 60-20 93-20 33 0 65 7 93 20 38-34 71-54 79-46 8 7-9 36-38 70 54 41 89 106 89 178z m-111-154c-7-5-14-10-22-14-27-15-58-23-90-23-32 0-63 8-89 23-8 4-16 9-23 14-47 34-78 90-78 153 0 105 85 189 190 189 105 0 190-84 190-189 0-63-31-119-78-153z m-207 379c6 2 11 4 17 6-47 42-109 41-148 2-39-39-40-100-1-146 1 3 2 6 3 8 12 29 30 55 52 78 22 22 48 40 77 52z m214-107c-31 32-74 50-119 50-45 0-87-18-119-50-32-32-50-74-50-119 0-45 18-88 50-120 32-31 74-49 119-49 45 0 88 18 119 49 32 32 50 75 50 120 0 45-18 87-50 119z m-17-129l-79 0c-5-8-13-13-23-13-15 0-27 12-27 26 0 12 7 22 18 25l0 96c0 5 4 8 9 8 4 0 8-3 8-8l0-96c6-2 12-6 15-12l79 0c7 0 13-6 13-13 0-7-6-13-13-13z"/>
<glyph unicode="&#100;" d="M503 236c-1 2-2 5-4 6-19 15-38 22-57 24 0 0-2 1-9 1-6 0-9-1-9-1-18-2-36-10-54-24-2-1-4-4-5-6-8-31-11-60-7-92 3-29 11-58 20-89 1-3 3-5 5-7 14-11 32-17 51-17 19 0 38 6 52 17 2 2 3 4 4 7 9 31 17 60 21 89 3 32 1 61-8 92z m-57-53c0-7-5-12-12-12-6 0-11 5-11 12l0 47c0 6 5 11 11 11 7 0 12-5 12-11z m-98-121l-21 0-16 57 34 0c-1 6-2 12-3 18-2 19-2 37 0 55l-302 0 0 253 409 0 0-163c13-1 26-5 39-11l0 194c0 11-9 19-20 19l-448 0c-11 0-20-8-20-19l0-326c0-11 9-20 20-20l158 0-17-57-21 0c-5 0-9-5-9-10l0-15c0-6 4-10 9-10l208 0c5 0 9 4 9 10l0 15c0 5-4 10-9 10z"/>
<glyph unicode="&#101;" d="M369 512c-31 0-57-24-59-55l-16-222c-1-10 3-19 9-26 7-7 16-11 26-11l1 0-6-174c0-8 3-15 8-20 5-5 12-8 20-8l23 0c15 0 27 12 27 27l0 456c0 18-14 33-33 33z m-131 0l-2 0c-6 0-10-5-10-10l0-98c0-8-7-16-16-16l-2 0c-9 0-16 8-16 16l0 98c0 5-4 10-10 10l-2 0c-6 0-10-5-10-10l0-98c0-8-7-16-16-16l-2 0c-9 0-16 8-16 16l0 98c0 5-4 10-10 10l-2 0c-6 0-10-5-10-10l0-148c0-18 14-32 33-32l4 0-9-298c-1-7 2-15 7-20 6-5 13-8 20-8l22 0c7 0 15 3 20 8 5 6 8 13 7 20l-9 298 6 0c19 0 33 14 33 32l0 148c0 5-4 10-10 10z"/>
<glyph unicode="&#102;" d="M256 512c-141 0-256-115-256-256 0-141 115-256 256-256 141 0 256 115 256 256 0 141-115 256-256 256z m177-154l-75 0c-7 34-20 62-35 93 46-18 87-49 110-93z m-177 103c20-31 38-64 49-103l-98 0c11 36 29 72 49 103z m-197-256c-5 15-8 33-8 51 0 18 3 36 8 51l87 0c-3-18-3-33-3-51 0-18 3-33 3-51z m20-51l75 0c7-34 20-62 35-93-46 18-87 49-110 93z m75 204l-75 0c26 44 64 75 110 93-15-31-28-59-35-93z m102-307c-20 31-38 64-49 103l98 0c-11-36-29-72-49-103z m59 154l-118 0c-2 18-5 33-5 51 0 18 3 33 5 51l120 0c3-18 6-33 6-51 0-18-6-33-8-51z m8-144c15 29 28 59 35 93l75 0c-23-44-64-75-110-93z m46 144c2 18 2 33 2 51 0 18-2 33-2 51l87 0c5-15 7-33 7-51 0-18-2-36-7-51z"/>
<glyph unicode="&#103;" d="M140 6c24 0 24 76 13 155-11 79-30 107-44 107-14 0-23-15-23-15-10-80 29-222 29-222 7-27 25-25 25-25z m263 22c0 0 34 143 21 223 0 0-10 15-24 14-14 0-31-30-40-109-8-79-5-155 19-154 0 0 18-1 24 26z m-395 182c0-20 4-49 21-79 0 0 6-49 18-66 7-9 18-17 26-21 3-5 39-34 39-34 0 0-22 64-31 127-9 64-6 115-6 115l-22-24c0 0-3-4-5-19l-4-3c0 0-3 5-9 10-5 5-9 14-6 21 2 8 1 20-2 28-4 7-6 24-3 39 7 30 27 81 88 130 0 0 16 5 88 24 94 25 163-22 163-22 0 0 27-9 33-6 0 0 69-44 90-128 4-14 2-31-2-39-4-7-5-19-3-26 2-7 1-16-3-21-3-3-5-7-6-10l-7 4c0 0-3 14-5 17-3 3-21 15-21 15 0 0 10-65-25-221 0 0 42 21 58 46 16 25 14 61 14 61 0 0 21 42 19 72 0 8-1 15-1 20-1 11 0 25 4 32 3 7 6 24 3 39-6 36-29 104-106 161 0 0-46 59-158 58-111-2-142-57-142-57 0 0-85-49-104-161-2-15 0-33 3-41 4-9 4-27 4-41z"/>
<glyph unicode="&#104;" d="M440 510l-221-68c-27-7-49-35-49-62l0-231c0 0 0-3 0-3 0 0-16 11-52 6-52-7-95-48-95-90 0-42 43-68 95-61 53 8 91 47 91 89 0 0 0 181 0 199 0 19 23 27 23 27l196 62c0 0 21 7 21-13 0-20 0-160 0-160 0 0 0 0 0 0 0 0-20 11-55 7-53-7-95-46-95-88 0-43 42-69 95-63 52 6 95 46 95 88l0 326c0 27-22 43-49 35z"/>
<glyph unicode="&#105;" d="M503 354l-105-101-21 23 79 76c8 7 8 19 0 27l-70 73c-4 4-8 6-14 6-5 0-10-2-13-5l-62-60 54-56c4-5 4-13-1-17-3-3-8-4-12-3l-78 83 102 99c6 6 16 6 22 0l119-123c6-6 6-16 0-22z m-354-298c-4-4-9-6-14-6-5 0-10 2-13 6l-71 73c-7 8-7 20 1 27l32-33c4-5 12-5 16-1 5 5 5 12 1 17l-33 33 9 9 32-34c5-5 12-5 17 0 4 4 4 11 0 16l-32 34 8 8 33-34c4-4 11-4 16 0 5 4 5 12 0 16l-32 34 8 8 33-33c4-5 12-5 16-1 2 2 3 4 4 6l-60 64-115-111c-6-6-6-16 0-22l118-123c6-6 16-6 22 0l113 109-21 23z m207 302c-15 15-15 40 1 55 15 15 40 14 55-1 15-16 14-41-1-55-16-15-40-15-55 1z m16 16c6-7 16-7 23-1 6 6 6 16 0 22-6 7-16 7-22 1-6-6-7-16-1-22z m63-200l-102-96-227 241 102 96z m-210 174c0 2-1 5-2 6l-11 12c-4 4-9 4-13 0l-6-5c-3-4-3-9 0-13l11-11c2-2 4-3 6-3 2 0 12 8 12 8 2 1 3 4 3 6z m158-177c4 4 4 9 0 13l-127 135c-2 2-4 3-6 3-3 0-5-1-7-2l-6-6c-3-3-3-9 0-12l128-136c1-2 3-3 6-3 2 0 4 1 6 3z m-287 159l102 96-27 28-102-96z m-72 76c-6 6-8 14-8 22 0 8 3 16 9 21l58 55c12 11 31 11 43-2l36-38-102-96z m18 21l19-20 62 59-19 20z m445-390c2-6 0-12-4-16-4-4-10-5-16-3l-121 46 102 97z m-32 41l-16 49-59-56 48-18z"/>
<glyph unicode="&#106;" d="M449 449c-21 32-55 52-100 59-14 3-29 4-43 4-74 0-140-33-189-95-32-40-56-91-68-146-12-53-13-108-2-154l0-1c9-37 43-89 89-89 14 0 34 5 54 30 8 10 15 20 21 29 15 24 22 34 36 34 3 0 6-1 10-2 11 33 22 64 25 73 4 9 11 21 21 37-1 2-2 3-2 6-5 17-3 39 6 61 9 22 23 41 41 54 16 11 34 18 51 18l0 0c3 0 6-1 9-2 4-2 8-5 11-10 4-7 4-16-1-23-2-4-2-6 3-20 6-16 14-37 4-64-12-33-30-47-44-53-4-17-8-31-11-40-1-3-3-7-6-13 17 13 32 29 47 49 34 45 56 103 61 155 3 40-5 76-23 103z m-323-240c-20 0-37 17-37 37 0 21 17 37 37 37 21 0 38-16 38-37 0-20-17-37-38-37z m42 99c-21 0-37 17-37 37 0 21 16 37 37 37 20 0 37-16 37-37 0-20-17-37-37-37z m74 74c-21 0-37 17-37 38 0 20 16 37 37 37 20 0 37-17 37-37 0-21-17-38-37-38z m114 8c-20 0-37 17-37 38 0 20 17 37 37 37 21 0 38-17 38-37 0-21-17-38-38-38z m46-44c-1 1-1 2-2 2-1 0-1 0-2 0-24 0-58-19-75-60-7-19-9-36-5-50 1-3 2-7 4-10l44-18c2 1 4 1 7 2 10 5 24 16 34 42 7 21 1 37-4 51-5 14-9 25-1 37 0 2 0 3 0 4z m-7-85c0-1-1-20-21-33-1 0-1 0-2 0-3-2-7-1-9 3-1 1-2 3-1 6 0 2 1 3 3 4 13 9 14 20 14 20 0 3 2 6 5 7 0 0 0 0 1 1 1 0 1 0 2 0 5 0 8-4 8-8z m-96-77c-8-19-52-154-54-160-3-9 1-19 10-22 9-4 19 0 23 8 3 6 66 133 74 152 4 10 7 25 10 38l-44 19c-7-12-15-26-19-35z"/>
<glyph unicode="&#107;" d="M336 506c29 4 57 6 81 6 13 0 26-1 39-1 29-2 53-26 55-55 2-31 2-73-5-120z m-330-330c-7-47-7-89-5-120 2-29 26-53 55-55 13-1 26-1 39-1 0 0 0 0 0 0 24 0 52 2 81 6z m494 126c-14-63-43-132-98-191-1 0-1 0-1-1-59-55-127-84-191-98l-198 198c14 63 43 132 98 191 1 0 1 0 1 1 59 55 127 84 191 98z m-138-1l-20 20 15 16c6 6 6 15 0 20-5 6-14 6-20 0l-16-15-20 20c-6 6-15 6-20 0-6-6-6-15 0-20l20-21-23-23-21 20c-5 6-14 6-20 0-5-5-5-14 0-20l21-20-24-24-20 21c-6 5-15 5-20 0-6-6-6-15 0-20l20-21-23-23-21 20c-5 6-14 6-20 0-6-5-6-14 0-20l20-20-15-16c-6-6-6-15 0-20 2-3 6-5 10-5 3 0 7 2 10 5l16 15 20-20c3-3 7-4 10-4 4 0 8 1 10 4 6 6 6 15 0 20l-20 21 23 23 21-20c2-3 6-5 10-5 3 0 7 2 10 5 5 5 5 14 0 20l-21 20 24 24 20-21c3-3 7-4 10-4 4 0 8 1 10 4 6 6 6 15 0 20l-20 21 23 23 21-20c3-3 6-4 10-4 4 0 7 1 10 4 6 5 6 14 0 20z"/>
<glyph unicode="&#108;" d="M447 365l0 44c0 39-35 71-78 71l-31 0 0 32-163 0 0-32-22 0c-43 0-85-32-85-71l0-44-22 0 0-89 22 0 0-153c0-25 15-47 37-60l0-63 59 0 0 52 201 0 0-52 60 0 0 74c13 13 22 30 22 49l0 153 19 0 0 89z m-231-266l-84 0 0 46 84 0z m-53 241l-7-9 48-30 86-97-181 0 0 225 294 0 0-225-96 0-66 74 18-11 8 10z m146-195l84 0 0-46-84 0z"/>
<glyph unicode="&#109;" d="M291 0l-71 0c-18 0-32 15-32 32l0 359c0 18 14 33 32 33l71 0c18 0 32-15 32-33l0-359c0-17-14-32-32-32z m-56 47l41 0 0 330-41 0z m-109-47l-71 0c-18 0-33 15-33 32l0 218c0 17 15 32 33 32l71 0c17 0 32-15 32-32l0-218c0-17-15-32-32-32z m-56 47l41 0 0 188-41 0z m387-47l-70 0c-18 0-33 15-33 32l0 448c0 17 15 32 33 32l70 0c18 0 33-15 33-32l0-448c0-17-15-32-33-32z m-56 47l41 0 0 418-41 0z"/>
<glyph unicode="&#110;" d="M106 103l349 0c1 0 2 0 3 0 0 0 0 0 0 0 8 0 14 6 14 14l0 381c0 8-6 14-14 14l-352 0c-36 0-65-29-65-65 0-1 0-1 0-2 0-33-1-338 0-378 0-1 0-1 0-2 0-35 27-63 61-65 0 0 1 0 2 0l354 0c8 0 14 6 14 13l0 51c0 7-6 13-14 13-7 0-13-6-13-13l0-37-339 0c-21 0-37 16-38 36 0 1 0 1 0 1 0 1 0 2 0 3 1 20 18 36 38 36z m9 344c0 7 6 13 14 13 7 0 13-6 13-13l0-274c0-8-6-14-13-14-8 0-14 6-14 14z"/>
<glyph unicode="&#111;" d="M256 20l-36 36c-133 118-220 197-220 295 0 79 61 141 141 141 43 0 87-21 115-54 28 33 72 54 115 54 80 0 141-62 141-141 0-98-87-177-220-295z"/>
<glyph unicode="&#112;" d="M477 226c10 15 15 32 15 50 0 21-7 39-23 55-16 16-34 23-55 23l-55 0c10 21 15 40 15 60 0 24-3 43-11 57-7 14-17 24-31 31-14 7-29 10-46 10-11 0-20-4-28-11-9-9-15-20-19-34-4-13-7-26-10-39-2-12-6-21-10-26-11-11-22-24-33-39-21-27-35-43-43-48l-84 0c-11 0-20-4-28-12-7-7-11-16-11-27l0-197c0-11 4-20 11-28 8-8 17-12 28-12l89 0c4 0 18-4 42-12 25-9 48-16 67-20 19-5 38-7 58-7l40 0c29 0 52 8 70 25 17 16 26 39 26 67 12 16 18 34 18 55 0 5 0 9-1 13 8 14 12 29 12 45 0 7-1 14-3 21z m-384-141c-4-4-9-6-14-6-6 0-10 2-14 6-4 3-6 8-6 13 0 6 2 10 6 14 4 4 8 6 14 6 5 0 10-2 14-6 4-4 5-8 5-14 0-5-1-10-5-13z m353 166c-4-10-9-15-16-15 3-3 6-8 8-14 2-7 3-12 3-17 0-15-6-27-17-37 4-7 6-14 6-21 0-8-2-15-5-23-4-7-9-13-15-16 1-6 1-12 1-17 0-35-19-52-59-52l-37 0c-27 0-62 8-105 23-1 0-4 1-9 3-5 2-9 3-11 4-2 1-6 2-11 3-5 2-8 3-11 4-3 0-7 1-11 2-3 0-7 1-9 1l-10 0 0 197 10 0c3 0 7 1 11 2 4 2 8 5 12 9 4 3 8 7 12 11 4 3 8 8 12 13 5 6 8 10 11 13 2 4 6 8 9 13 4 5 7 8 8 9 11 14 19 23 23 28 9 9 15 20 19 34 3 13 6 26 9 38 2 13 6 21 12 27 19 0 32-5 39-15 7-10 10-24 10-44 0-13-5-29-15-50-10-21-15-37-15-49l109 0c10 0 19-4 27-12 8-8 12-17 12-27 0-8-2-16-7-25z"/>
<glyph unicode="&#114;" d="M106 103l349 0c1 0 2 0 3 0 0 0 0 0 0 0 8 0 14 6 14 14l0 381c0 8-6 14-14 14l-352 0c-36 0-65-29-65-65 0-1 0-1 0-2 0-33-1-338 0-378 0-1 0-1 0-2 0-35 27-63 61-65 0 0 1 0 2 0l354 0c8 0 14 6 14 13l0 51c0 7-6 13-14 13-7 0-13-6-13-13l0-37-339 0c-21 0-37 16-38 36 0 1 0 1 0 1 0 1 0 2 0 3 1 20 18 36 38 36z m9 344c0 7 6 13 14 13 7 0 13-6 13-13l0-274c0-8-6-14-13-14-8 0-14 6-14 14z"/>
<glyph unicode="&#115;" d="M291 0l-71 0c-18 0-32 15-32 32l0 359c0 18 14 33 32 33l71 0c18 0 32-15 32-33l0-359c0-17-14-32-32-32z m-56 47l41 0 0 330-41 0z m-109-47l-71 0c-18 0-33 15-33 32l0 218c0 17 15 32 33 32l71 0c17 0 32-15 32-32l0-218c0-17-15-32-32-32z m-56 47l41 0 0 188-41 0z m387-47l-70 0c-18 0-33 15-33 32l0 448c0 17 15 32 33 32l70 0c18 0 33-15 33-32l0-448c0-17-15-32-33-32z m-56 47l41 0 0 418-41 0z"/>
<glyph unicode="&#116;" d="M256 20l-36 36c-133 118-220 197-220 295 0 79 61 141 141 141 43 0 87-21 115-54 28 33 72 54 115 54 80 0 141-62 141-141 0-98-87-177-220-295z"/>
<glyph unicode="&#117;" d="M492 356c-27 63-73 108-137 135-31 14-65 21-99 21-35 0-68-7-100-21-63-27-109-72-136-135-13-32-20-65-20-100 0-34 7-68 20-99 27-63 73-109 136-136 32-14 65-21 100-21 34 0 68 7 99 21 64 27 110 73 137 136 13 31 20 65 20 99 0 35-7 68-20 100z m-41-213c-20-34-48-62-83-82-34-20-72-30-112-30-31 0-60 6-88 18-27 12-51 28-71 48-20 20-36 44-48 72-12 27-18 57-18 87 0 41 10 78 30 113 20 34 48 62 82 82 34 20 72 30 113 30 40 0 78-10 112-30 35-20 63-48 83-82 20-35 30-72 30-113 0-40-10-78-30-113z m-179 116l0 145c0 8-8 15-16 15-9 0-16-7-16-15l0-148c0 0 1-1 1-2-1-5 1-9 4-13l84-83c5-6 16-6 21 0 7 6 6 16 0 22z"/>
<glyph unicode="&#118;" d="M256 512c-106 0-192-86-192-192 0-106 192-320 192-320 0 0 192 214 192 320 0 106-86 192-192 192z m0-320c-71 0-128 57-128 128 0 71 57 128 128 128 71 0 128-57 128-128 0-71-57-128-128-128z"/>
<glyph unicode="&#119;" d="M256 459c-80 0-144-65-144-145 0-32 10-62 28-86l93-161c0-1 1-2 2-3l0 0 0 0c5-6 12-11 21-11 8 0 15 4 20 10l0-1 1 2c1 2 2 4 3 6l91 157c18 24 29 55 29 87 0 80-64 145-144 145z m-1-218c-40 0-72 32-72 71 0 40 32 71 72 71 39 0 71-31 71-71 0-39-32-71-71-71z"/>
<glyph unicode="&#120;" d="M256 512c-107 0-194-87-194-194 0-108 152-318 194-318 31 0 194 210 194 318 0 107-87 194-194 194z m-1-290c-54 0-99 44-99 99 0 54 45 99 99 99 55 0 99-45 99-99 0-55-44-99-99-99z"/>
<glyph unicode="&#121;" d="M36 120l0 152c1 16 14 28 28 28l69 0c19 15 33 36 52 51 6 5 11 11 15 17 12 23 5 50 21 69 34 14 75-6 86-38 9-26 3-51-8-74 40 0 80-1 120-1 33-2 56-24 57-56 0-31-28-54-57-55l-47 0c-2-9-5-18-9-25 2-20-4-39-15-52-7-113-154-46-209-44l-75 0c-16 0-28 13-28 28z m102 0c44-1 195-68 180 28 16 8 22 31 12 46 15 14 20 33 5 47 14 0 28 0 42 1 14 0 28 0 42 0 17 0 28 12 28 26 0 17-13 28-28 28-55 0-109 0-160 0 5 37 49 87 4 117-8 3-13 5-21 3-1 0-2-1-2-2 0 0 0-1-1-3-4-29-9-58-32-78-25-19-39-49-68-61l-1 0z"/>
<glyph unicode="&#113;" d="M477 226c10 15 15 32 15 50 0 21-7 39-23 55-16 16-34 23-55 23l-55 0c10 21 15 40 15 60 0 24-3 43-11 57-7 14-17 24-31 31-14 7-29 10-46 10-11 0-20-4-28-11-9-9-15-20-19-34-4-13-7-26-10-39-2-12-6-21-10-26-11-11-22-24-33-39-21-27-35-43-43-48l-84 0c-11 0-20-4-28-12-7-7-11-16-11-27l0-197c0-11 4-20 11-28 8-8 17-12 28-12l89 0c4 0 18-4 42-12 25-9 48-16 67-20 19-5 38-7 58-7l40 0c29 0 52 8 70 25 17 16 26 39 26 67 12 16 18 34 18 55 0 5 0 9-1 13 8 14 12 29 12 45 0 7-1 14-3 21z m-384-141c-4-4-9-6-14-6-6 0-10 2-14 6-4 3-6 8-6 13 0 6 2 10 6 14 4 4 8 6 14 6 5 0 10-2 14-6 4-4 5-8 5-14 0-5-1-10-5-13z m353 166c-4-10-9-15-16-15 3-3 6-8 8-14 2-7 3-12 3-17 0-15-6-27-17-37 4-7 6-14 6-21 0-8-2-15-5-23-4-7-9-13-15-16 1-6 1-12 1-17 0-35-19-52-59-52l-37 0c-27 0-62 8-105 23-1 0-4 1-9 3-5 2-9 3-11 4-2 1-6 2-11 3-5 2-8 3-11 4-3 0-7 1-11 2-3 0-7 1-9 1l-10 0 0 197 10 0c3 0 7 1 11 2 4 2 8 5 12 9 4 3 8 7 12 11 4 3 8 8 12 13 5 6 8 10 11 13 2 4 6 8 9 13 4 5 7 8 8 9 11 14 19 23 23 28 9 9 15 20 19 34 3 13 6 26 9 38 2 13 6 21 12 27 19 0 32-5 39-15 7-10 10-24 10-44 0-13-5-29-15-50-10-21-15-37-15-49l109 0c10 0 19-4 27-12 8-8 12-17 12-27 0-8-2-16-7-25z"/>
<glyph unicode="&#65;" d="M417 288c17 0 31-14 31-32 0-18-14-32-31-32l-322 0c-17 0-31 14-31 32 0 18 14 32 31 32z m0 128c17 0 31-14 31-32 0-18-14-32-31-32l-322 0c-17 0-31 14-31 32 0 18 14 32 31 32z m0-256c17 0 31-14 31-32 0-18-14-32-31-32l-322 0c-17 0-31 14-31 32 0 18 14 32 31 32z"/>
<glyph unicode="&#66;" d="M438 125c14-14 14-37 0-51-14-14-37-14-51 0l-131 131-131-131c-14-14-36-14-50 0-14 14-14 37 0 51l130 131-130 131c-14 14-14 37 0 51 14 14 36 14 50 0l131-131 131 131c14 14 37 14 51 0 14-14 14-37 0-51l-131-131z"/>
<glyph unicode="&#122;" d="M208 416l-64-64 96-96-96-96 64-64 160 160z"/>
<glyph unicode="&#67;" d="M368 352l-64 64-160-160 160-160 64 64-96 96z"/>
</font>
</defs>
</svg>
